Загрузка...

Полицейский с Рублёвки. Фильм о сериале (Илья Куликов) [2018, комедия, документальный, WEBRip 720p]

Ответить на тему
 
Автор Сообщение

Magnat ®

Пол:

Стаж: 3 года 4 месяца

Сообщений: 665

Откуда: почти Москва

Пост 22-Дек-2018 22:06

[Цитировать]

Полицейский с Рублёвки. Фильм о сериале
Год выпуска: 2018
Производство:АВ Контент
Жанр: комедия, документальный
Продолжительность: 00:51:34
Субтитры: нет
Режиссёр: Илья Куликов

В ролях: Александр Петров, Сергей Бурунов, София Каштанова, Александра Бортич, Татьяна Бабенкова, Роман Попов, Ростислав Гулбис, Сергей Штатнов, Светлана Суханова, Ирина Вилкова

Описание: Все, что осталось за кадром, неудачные дубли и интервью твоих любимых актеров – в фильме о самом безбашенном сериале «Полицейский с Рублевки»

Описание сериала: «Полицейский с Рублёвки» — это история о Грише Измайлове, полицейском, который призван охранять покой и порядок в самом элитном районе России, где живут невероятно богатые люди. Ему приходится расследовать дела, в которые впутываются жители Рублевки, и делает он это нередко превышая свои полномочия. Грише около 30 лет, он красив, одинок, богат, циничен, азартен и ко всему относится с изрядной долей черного юмора. Он заботится о младшей сестре-хулиганке, которую вынужден постоянно вытаскивать из неприятностей. Гриша не прикладывая усилий умеет нравиться женщинам и регулярно издевается над своим начальником Яковлевым.

Реклама: Нет.
Качество: WEBRip 720p
Формат: MKV
Видео кодек: H.264
Аудио кодек: AC3
Видео: MPEG4 AVC Video, H264, 16:9, 1280x720, 25 fps, ~2600 kbps, 0.113 bit/pixel
Аудио: AC3 Dolby Digital, 48.0 kHz, 2/0 (L,R) ch, 192 kbps

MI

General
Unique ID : 246358110034644575586664806705316867013 (0xB956D89B0C277E77BAD456BCA2FDABC5)
Complete name : D:\Policejskij.s.Rublyovki.Film.o.seriale.(2018).WEB-DL.720p.mkv
Format : Matroska
Format version : Version 2
File size : 1.00 GiB
Duration : 51 min 34 s
Overall bit rate mode : Constant
Overall bit rate : 2 776 kb/s
Encoded date : UTC 2018-12-16 00:56:29
Writing application : mkvmerge v5.8.0 ('No Sleep / Pillow') built on Sep 2 2012 15:37:04
Writing library : libebml v1.2.3 + libmatroska v1.3.0
Video
ID : 1
Format : AVC
Format/Info : Advanced Video Codec
Format profile : Baseline@L4
Format settings : 4 Ref Frames
Format settings, CABAC : No
Format settings, ReFrames : 4 frames
Codec ID : V_MPEG4/ISO/AVC
Duration : 51 min 34 s
Bit rate mode : Constant
Bit rate : 2 600 kb/s
Width : 1 280 pixels
Height : 720 pixels
Display aspect ratio : 16:9
Frame rate mode : Constant
Frame rate : 25.000 FPS
Standard : PAL
Color space : YUV
Chroma subsampling : 4:2:0
Bit depth : 8 bits
Scan type : Progressive
Bits/(Pixel*Frame) : 0.113
Stream size : 933 MiB (91%)
Language : Russian
Default : Yes
Forced : No
Color range : Limited
Color primaries : BT.709
Transfer characteristics : BT.709
Matrix coefficients : BT.709
Audio
ID : 2
Format : AC-3
Format/Info : Audio Coding 3
Codec ID : A_AC3
Duration : 51 min 34 s
Bit rate mode : Constant
Bit rate : 192 kb/s
Channel(s) : 2 channels
Channel positions : Front: L R
Sampling rate : 48.0 kHz
Frame rate : 31.250 FPS (1536 SPF)
Bit depth : 16 bits
Compression mode : Lossy
Stream size : 70.8 MiB (7%)
Language : Russian
Service kind : Complete Main
Default : Yes
Forced : No

Скриншоты


[Профиль] [ЛС]
Похожие темы
Форум Тема Автор Размер
Книги Андрей Кивинов - Сборник произведений (117 книг) [1994-2013, Детектив, Полицейский детектив, FB2] Монах 63 MB
Новинки 2018-2019 года Андроид-полицейский / Android Cop (2014) HDRip | VO igor1974 749 MB
Новинки 2018-2019 года Андроид-полицейский / Android Cop (2014) HDRip |VO Монах 1.37 GB
Новинки 2018-2019 года Андроид-полицейский / Android Cop (2014) HDRip-AVC от ExKinoRay | VO Монах 1.6 GB
Иностранное кино HD Андроид-полицейский / Android Cop / Hammond (2014) BDRip 1080p / VO igor1974 7.22 GB
Paзвлeкaтeльныe пepeдaчи и шoy, концерты, пpикoлы и юмop (смотреть онлайн, скачать без регистрации) Большой праздничный концерт, посвященный 300-летию российской полиции [09/06/2018, Концерт, SATRip] камикадзе 1.69 GB
Зарубежные сериалы Бруклин 9-9 (1 сезон: 1-22 серия из 22) / Brooklyn Nine-Nine [2013-2014, Комедия, полицейский ситком, детектив, драма, WEB-DLRip, Профессиональный многоголосый (NewStudio)] polvandyk 6.44 GB
Зарубежные сериалы Бруклин 9-9 / Brooklyn Nine-Nine [01x01-22 из 22] ( Фил Лорд, Крис Миллер, Джейсон Энслер ) [ 2013,Комедия, полицейский ситком, детектив, драма, WEB-DLRip ] MVO [NewStudio] Монах 7.59 GB
Показать сообщения:    
Ответить на тему

Текущее время: Сегодня 11:04

Часовой пояс: GMT + 3



Вы не можете начинать темы
Вы не можете отвечать на сообщения
Вы не можете редактировать свои сообщения
Вы не можете удалять свои сообщения
Вы не можете голосовать в опросах
Вы не можете прикреплять файлы к сообщениям
Вы не можете скачивать файлы